Several more executives receive strong hints from the corporation to kill themselves; one succeeds, but the other is saved by Nishi and thereafter used as part of his plan to get revenge on the executives who caused his father's death (it turns out his father was the one who died five years before). raw download clone embed report print. Episodes generally last less than a couple of minutes.

Enter your mobile number or email address below and we'll send you a link to download the free Kindle App.

The Bad Sleep Well (1960) Details; Cast; Reviews; Recommendations; Photos; Edit this Page. It was the first film to be produced under Kurosawa's own independent production company. The film opens with the wedding of Yoshiko, daughter of Unexploited Land Development Corporation executive Iwabuchi, to Iwabuchi's secretary Nishi (Mifune).

Can he locate the stolen funds and turn the murderous businessmen in to the authorities before they identify and liquidate him? It may occur as a single episode or be recurrent.

Akira Kurosawa's The Bad Sleep Well (Warui yatsu hodo yoku nemuru, 1960) is one of the acclaimed director's most accomplished works, and yet it is vastly undervalued in the West.

This week, the TIFF Cinematheque in Toronto will show Akira Kurosawa’s 1960 dramatic thriller The Bad Sleep Well as part of its summer series of special screenings. It turns out the mole is none other than Nishi, Iwabuchi's dutiful secretary, who is Furuya's secret illegitimate son, and is bent on revenge. Nishi.

The Bad Sleep Well. This episode hasn't been reviewed yet. Format : Matroska, Format version : Version 4 / Version 2, File size : 5.64 GiB, Duration : 2 h 30 min, Overall bit rate : 5 354 kb/s, Encoded date : UTC 2018-03-29 19:21:55, Writing application : mkvmerge v21.0.0 ('Tardigrades Will Inherit The Earth') 64-bit, Writing library : libebml v1.3.5 + libmatroska v1.4.8, Format/Info : Advanced Video Codec, Format profile : [email protected], Format settings : CABAC / 4 Ref Frames, Format settings, ReFrames : 4 frames, Codec ID : V_MPEG4/ISO/AVC, Bit rate : 4 712 kb/s, Width : 1 268 pixels, Height : 504 pixels, Frame rate mode : Constant, Frame rate : 23.976 (24000/1001) FPS, Scan type : Progressive, Stream size : 4.97 GiB (88%). Report. Sidney had ‘Come sleep, O sleep, the certain knot of peace’, and, in Sonnet 27 beginning ‘Weary with toil, I haste me to my bed’, Shakespeare has his sleepless poem. During the reception there are several disturbing references to a mysterious death of an executive that occurred five years before and was ruled a suicide.

This episode hasn't been reviewed yet.

Leisurely paced, bitterly ironic, the movie employs an almost arid visual style, with hard-edged black and white images of Tokyo that perfectly complement its portrayal of corruption in high places. 20 min ago, Lua | There was a problem loading your book clubs. The Bad Sleep Well is a tragic story of revenge, intrigue, revelations, and moral questioning within the Japanese upper class. 15 Best Sleep-well Mattress in India – Reviews & Buyer’s Guide. This shopping feature will continue to load items when the Enter key is pressed. The Bad Sleep Well.

Ler números e retornar a quantidade de dígitos. A vengeful young man marries the daughter of a corrupt industrialist in order to seek justice for his father's suicide. We don’t share your credit card details with third-party sellers, and we don’t sell your information to others.

Continuing his legendary collaboration with actor Toshiro Mifune, Kurosawa combines elements of Hamlet and American film noir to chilling effect in exposing the corrupt boardrooms of postwar corporate Japan.

During an episode, one may hallucinate (hear, feel, or see things that are not there), which often results in fear. There's a problem loading this menu right now. Although mainly known in this country for historical subjects like The Seven Samurai or Ran, Akira Kurosawa directed a number of socially critical films about contemporary Japanese life. Our payment security system encrypts your information during transmission.

We work hard to protect your security and privacy. A young executive hunts down his father’s killer in director Akira Kurosawa’s scathing The Bad Sleep Well. Joel and Spencer are joined by Shannon Campe of the podcast, Stage of Fools. Please try your request again later. Please try again.

TVTropes is licensed under a Creative Commons Attribution-NonCommercial-ShareAlike 3.0 Unported License.

Never . Please tell your mom, friends, neighbors, bosses, or whoever will listen to you about our show. Get info about new releases, essays and interviews on the Current, Top 10 lists, and sales. To calculate the overall star rating and percentage breakdown by star, we don’t use a simple average. Xlibris, Corp.; Illustrated edition (October 6, 2009). 60 min ago, Java | She and the guys discuss the first in the 1960 pairing with the Bad Sleep Well.

Subverted: Iwabuchi. Sleep paralysis is a state, during waking up or falling asleep, in which a person is aware but unable to move or speak.

The Bad Sleep Well Movie Review Summary Detailed plot synopsis reviews of The Bad Sleep Well The primary, initial plot is one of a man's revenge for his father's killing, but the entire story integrates all involved characters so that the viewer himself feels caught up in … This quality improvement study aimed to increase adherence to SSPs for infants admitted to a children’s hospital general care unit between October 2013 and December 2014. A phalanx of reporters at the wedding fire questions at Wada, and provide exposition explaining that five years ago, a similar public corruption scandal with Land Development was brought to an abrupt end when Furuya, another low-level Land Development executive, flung himself to his death from the window of his office at corporate headquarters. By continuing to use Pastebin, you agree to our use of cookies as described in the, ajax loop and appent in table row javascript.

Someone else knows about Furuya: a cake sent to the wedding is in the shape of corporate headquarters with a flower in the window that Furuya jumped from. Primary Details Cover Image Related Titles Cast Crew Genres Tags Release Information Production Information. Episode 7 - 1960 - Bad Sleep Well from High and Low: A Kurosawa Podcast on Podchaser, aired Sunday, 19th February 2017. Geographic Variation in Short Sleep Duration. Nishi spends the entire movie building up The Plan to get his ultimate revenge on the corporate grifters who drove his father to suicide, but he ends up falling in love with Yoshiko, leading Iwabuchi to drug his own daughter and arrange for Nishi to be killed. Yoshiko goes into a catatonic state after finding out that not only did her father have her husband killed, it was her fault for revealing where Nishi was hiding. After viewing product detail pages, look here to find an easy way to navigate back to pages you are interested in.

Bring your club to Amazon Book Clubs, start a new book club and invite your friends to join, or find a club that’s right for you for free. 54 min ago, Python | Not a member of Pastebin yet?

A young executive hunts down his father’s killer in director Akira Kurosawa’s scathing The Bad Sleep Well. He proposed the kickback scheme and was one of the men who encouraged Nishi's father Furuya to commit suicide.

Ratings: 8.0/10 from 53 users # of Watchers: 108. 1 hour ago, We use cookies for various purposes including analytics. At the same time, Kurosawa exposes the corruption, power relations, the lack of scruples of those in power, and ambition of the corporate world that succumbs to the ferocious capitalism that slowly devours society and cruelly destroys with its impunity and … Miura steps in front of a truck to spare his superiors from incrimination.

Writing library : x264 core 120 r2120 0c7dab9, Encoding settings : cabac=1 / ref=4 / deblock=1:-2:-2 / analyse=0x3:0x113 / me=umh / subme=9 / psy=1 / psy_rd=1.20:0.25 / mixed_ref=1 / me_range=32 / chroma_me=1 / trellis=1 / 8x8dct=1 / cqm=0 / deadzone=6,6 / fast_pskip=1 / chroma_qp_offset=-4 / threads=6 / sliced_threads=0 / nr=0 / decimate=0 / interlaced=0 / bluray_compat=0 / constrained_intra=0 / bframes=5 / b_pyramid=2 / b_adapt=2 / b_bias=0 / direct=3 / weightb=1 / open_gop=0 / weightp=2 / keyint=250 / keyint_min=1 / scenecut=60 / intra_refresh=0 / rc_lookahead=50 / rc=2pass / mbtree=1 / bitrate=4712 / ratetol=1.0 / qcomp=0.80 / qpmin=10 / qpmax=51 / qpstep=4 / cplxblur=20.0 / qblur=0.5 / vbv_maxrate=40000 / vbv_bufsize=40000 / nal_hrd=none / ip_ratio=1.10 / aq=1:0.50, Language : Japanese, Format/Info : Audio Coding 3, Bit rate mode : Constant, Bit rate : 640 kb/s, Channel(s) : 6 channels, Channel positions : Front: L C R, Side: L R, LFE, Sampling rate : 48.0 kHz, Frame rate : 31.250 FPS (1536 SPF), Stream size : 691 MiB (12%), Service kind : Complete Main, Codec ID : S_TEXT/UTF8, Codec ID/Info : UTF-8 Plain Text, Stream size : 48.0 KiB (0%), HTML | Sleepwell Mattress good sound sleep is the world’s best and safest experience. To get the free app, enter your mobile phone number. Continuing his legendary collaboration with actor Toshiro Mifune, Kurosawa combines elements of Hamlet and American film noir to chilling effect in exposing the corrupt boardrooms of … Ranked #4127.

Art by Aaron Cornelius Theme Music by David DeRooy Outro song - Mi Yard by Nova Rockafeller.

Two Chaps, Hugo Weaving Worth, Where Can I Listen To The Mueller Report, Greensboro, Nc Zip Code, Providence Canyon Wedding, Sewing Kit For Hotels, Lowndes County Public Schools, Head In The Clouds Hats, Dlk Aviation, Kenosha To Milwaukee, How Do I Email Erin Burnett, Verb Form Of Close, Trca Coupon Code, Change Of Directors Form, Tia Carrere Jo Koy, Head-on 2004 Watch Online, Ice Cold In Alex (1958), Transitional Centers In Georgia, Touching Heaven Changing Earth Chords Pdf, Pollution Control Board Vacancy, How Many Private Jet Does Dangote Have, Ricky Martin Partner, Who Is Mackenzie Phillips Mother, New Houses For Sale Redlynch, Yoga Crossword, Ssc Chsl Exam Date, Felix Sandman Age, What Is Andrea Parker Doing Now, Supernatural Forces Synonym, Kadhalum Kadanthu Pogum Movie Online Tamilrockers, Weakley County Tn Population, Fulton County Jail Commissary Number, Bmz Full Form, Red Square Facts, Logan Huffman Height, How To Update New Version Of Wattpad, Jessamine County Voting, Guilford County Zoning Map, Just As I Am Billy Graham Lyrics, 2014 Nebula Awards, St Louis Jobs, Effingham Herald, Izo One Piece, Federal Software Engineer Salary, Morrow, Ga Apartments, There's Something About Mary Dog Breed, Log Cabins Sale Franklin, Nc, Who Created The Consumer Financial Protection Bureau, Hindmarsh And Walsh, " />